travismk
一代宗师

[2020] [欧美] [其他] [BD-1080P] 你本应离开/不该在此 You.Should.Have.Left.2020.1080p.BluRay.x264-FREEMAN 6.40GB

-->

帖子完整标题:你本应离开/不该在此 You.Should.Have.Left.2020.1080p.BluRay.x264-FREEMAN 6.40GB



◎译  名 你本应离开/不该在此/你本该离开
◎片  名 You Should Have Left
◎年  代 2020
◎产  地 美国
◎类  别 悬疑 / 恐怖
◎语  言 英语
◎上映日期 2020-06-18(美国)
◎IMDb评分 5.3/10 from 11975 users
◎IMDb链接 https://www.imdb.com/title/tt8201852/
◎豆瓣评分 5.4/10 from 2241 users
◎豆瓣链接 https://movie.douban.com/subject/30180873/
◎片  长 93分钟
◎导  演 大卫·凯普 David Koepp
◎编  剧 大卫·凯普 David Koepp / 丹尼尔·凯尔曼 Daniel Kehlmann
◎主  演 阿曼达·塞弗里德 Amanda Seyfried
      凯文·贝肯 Kevin Bacon
      科林·布鲁门奥 Colin Blumenau
      艾芙莉·蒂优·埃塞克斯 Avery Tiiu Essex
      劳瑞·安·理查德斯 Lowri Ann Richards

◎标  签 悬疑 | 惊悚 | 恐怖 | 美国 | 2020 | 美国电影 | 阿曼达·塞弗里德 | 电影

◎简  介

  影片改编自同名小说,讲述一个电影编剧(贝肯饰)带着老婆(塞弗里德饰)、孩子在阿尔卑斯山附近潜心创作,但一些离奇事件却不断发生。

Video
ID : 1
Format : AVC
Format/Info : Advanced Video Codec
Format profile : [email protected]
Format settings : CABAC / 4 Ref Frames
Format settings, CABAC : Yes
Format settings, Reference frames : 4 frames
Codec ID : V_MPEG4/ISO/AVC
Duration : 1 h 33 min
Bit rate : 6 271 kb/s
Width : 1 920 pixels
Height : 1 036 pixels
Display aspect ratio : 1.85:1
Frame rate mode : Constant
Frame rate : 23.976 (24000/1001/189150) FPS
Color space : YUV
Chroma subsampling : 4:2:0
Bit depth : 8 bits
Scan type : Progressive
Bits/(Pixel*Frame) : 0.131
Stream size : 4.09 GiB (64%)
Writing library : x264 core 161 r3018 db0d417
Encoding settings : cabac=1 / ref=4 / deblock=1:-3:-3 / analyse=0x3:0x133 / me=umh / subme=9 / psy=1 / psy_rd=1.00:0.00 / mixed_ref=1 / me_range=16 / chroma_me=1 / trellis=2 / 8x8dct=1 / cqm=0 / deadzone=21,11 / fast_pskip=1 / chroma_qp_offset=-2 / threads=18 / lookahead_threads=1 / sliced_threads=0 / nr=0 / decimate=1 / interlaced=0 / bluray_compat=0 / constrained_intra=0 / bframes=3 / b_pyramid=2 / b_adapt=2 / b_bias=0 / direct=3 / weightb=1 / open_gop=0 / weightp=2 / keyint=250 / keyint_min=23 / scenecut=40 / intra_refresh=0 / rc_lookahead=60 / rc=crf / mbtree=1 / crf=17.0 / qcomp=0.60 / qpmin=0 / qpmax=69 / qpstep=4 / ip_ratio=1.40 / aq=3:0.80
Language : English
Default : Yes
Forced : No
Color range : Limited
Matrix coefficients : BT.709

Audio
ID : 2
Format : DTS XLL
Format/Info : Digital Theater Systems
Commercial name : DTS-HD Master Audio
Codec ID : A_DTS
Duration : 1 h 33 min
Bit rate mode : Variable
Bit rate : 3 463 kb/s
Channel(s) : 6 channels
Channel layout : C L R Ls Rs LFE
Sampling rate : 48.0 kHz
Frame rate : 93.750 FPS (512 SPF)
Bit depth : 24 bits
Compression mode : Lossless
Stream size : 2.26 GiB (35%)
Title : dtshd
Language : English
Default : Yes
Forced : No

Text #1
ID : 3
Format : PGS
Muxing mode : zlib
Codec ID : S_HDMV/PGS
Codec ID/Info : Picture based subtitle format used on BDs/HD-DVDs
Duration : 1 h 29 min
Bit rate : 16.9 kb/s
Count of elements : 2390
Stream size : 10.8 MiB (0%)
Title : sub
Language : English
Default : No
Forced : No

Text #2
ID : 4
Format : PGS
Muxing mode : zlib
Codec ID : S_HDMV/PGS
Codec ID/Info : Picture based subtitle format used on BDs/HD-DVDs
Duration : 1 h 31 min
Bit rate : 8 038 b/s
Count of elements : 2156
Stream size : 5.24 MiB (0%)
Title : sub
Language : Japanese
Default : No
Forced : No

Text #3
ID : 5
Format : PGS
Muxing mode : zlib
Codec ID : S_HDMV/PGS
Codec ID/Info : Picture based subtitle format used on BDs/HD-DVDs
Duration : 1 h 31 min
Bit rate : 13.9 kb/s
Count of elements : 2002
Stream size : 9.09 MiB (0%)
Title : sub
Language : French
Default : No
Forced : No

Text #4
ID : 6
Format : PGS
Muxing mode : zlib
Codec ID : S_HDMV/PGS
Codec ID/Info : Picture based subtitle format used on BDs/HD-DVDs
Duration : 1 h 31 min
Bit rate : 13.0 kb/s
Count of elements : 1848
Stream size : 8.51 MiB (0%)
Title : sub
Language : German
Default : No
Forced : No

Text #5
ID : 7
Format : PGS
Muxing mode : zlib
Codec ID : S_HDMV/PGS
Codec ID/Info : Picture based subtitle format used on BDs/HD-DVDs
Duration : 1 h 31 min
Bit rate : 11.9 kb/s
Count of elements : 1768
Stream size : 7.75 MiB (0%)
Title : sub
Language : Dutch
Default : No
Forced : No

Text #6
ID : 8
Format : PGS
Muxing mode : zlib
Codec ID : S_HDMV/PGS
Codec ID/Info : Picture based subtitle format used on BDs/HD-DVDs
Duration : 1 h 21 min
Bit rate : 139 b/s
Count of elements : 36
Stream size : 83.7 KiB (0%)
Title : sub forced
Language : Japanese
Default : No
Forced : No

Text #7
ID : 9
Format : PGS
Muxing mode : zlib
Codec ID : S_HDMV/PGS
Codec ID/Info : Picture based subtitle format used on BDs/HD-DVDs
Duration : 1 h 21 min
Bit rate : 464 b/s
Count of elements : 46
Stream size : 278 KiB (0%)
Title : sub forced
Language : French
Default : No
Forced : No

Text #8
ID : 10
Format : PGS
Muxing mode : zlib
Codec ID : S_HDMV/PGS
Codec ID/Info : Picture based subtitle format used on BDs/HD-DVDs
Duration : 1 h 28 min
Bit rate : 367 b/s
Count of elements : 42
Stream size : 239 KiB (0%)
Title : sub forced
Language : German
Default : No
Forced : No

Menu
00:00:00.000 : en:00:00:00.000
00:04:48.580 : en:00:04:48.580
00:07:12.057 : en:00:07:12.057
00:12:00.887 : en:00:12:00.887
00:17:07.777 : en:00:17:07.777
00:23:32.578 : en:00:23:32.578
00:28:58.612 : en:00:28:58.612
00:32:40.917 : en:00:32:40.917
00:39:53.766 : en:00:39:53.766
00:44:55.902 : en:00:44:55.902
00:47:13.914 : en:00:47:13.914
00:49:41.687 : en:00:49:41.687
00:54:14.543 : en:00:54:14.543
01:00:14.236 : en:01:00:14.236
01:04:02.630 : en:01:04:02.630
01:08:27.228 : en:01:08:27.228
01:13:05.298 : en:01:13:05.298
01:18:15.357 : en:01:18:15.357
01:24:11.338 : en:01:24:11.338
01:27:47.971 : en:01:27:47.971





1 个附件 售价 大小 下载 时间

You.Should.Have.Left.2020.1080p.BluRay.x264-FREEMAN.zip 0 金币 32.71K 322 次 1月前

#1楼
发帖时间:2020-10-30 19:17:28   |   回复数:0
游客组